The Jimi Hendrix Experience Electric Ladyland Torrent

Posted onby
The jimi hendrix experience electric ladyland torrents

The Jimi Hendrix Experience Electric Ladyland Torrent Pirate Bay

Info
The Jimi Hendrix Experience - Electric Ladyland [50th Anniversary Deluxe Edition] (1968/2018)
Blues Rock, Hard Rock, Psychedelic Rock
Legacy Recordings
03:41:56
FLAC
Lista Utworów
CD1 Electric Ladyland (newly remastered)
1. ? And the Gods Made Love
2. Have You Ever Been (To Electric Ladyland)
3. Crosstown Traffic
4. Voodoo Chile
5. Little Miss Strange
6. Long Hot Summer Night
7. Come On (Part I)
8. Gypsy Eyes
9. Burning of the Midnight Lamp
10. Rainy Day, Dream Away
11. 1983?(A Merman I Should Turn To Be)
12. Moon, Turn the Tide?Gently Gently Away
13. Still Raining, Still Dreaming
14. House Burning Down
15. All Along the Watchtower
16. Voodoo Child (Slight Return)
CD2 At Last? The Beginning: The Making Of Electric Ladyland: The Early Years (unreleased demos)
1. 1983?(A Merman I Should Turn To Be)
2. Angel
3. Cherokee Mist
4. Hear My Train A Comin?
5. Voodoo Chile
6 Gypsy Eyes
7. Somewhere
8. Long Hot Summer Night [Demo 1]
9. Long Hot Summer Night [Demo 3]
10. Long Hot Summer Night [Demo 4]
11. Snowballs At My Window
12. My Friend
13. At Last ? The Beginning
14. Angel Caterina
15. Little Miss Strange
16. Long Hot Summer Night [Take 1]
17. Long Hot Summer Night [Take 14]
18. Rainy Day, Dream Away
19. Rainy Day Shuffle
20. 1983?(A Merman I Should Turn To Be)
CD3 Live At The Hollywood Bowl: September 14, 1968 (unreleased concert)
1. Introduction
2. Are You Experienced?
3. Voodoo Child (Slight Return)
4. Red House
5. Foxey Lady
6. Fire
7. Hey Joe
8. Sunshine Of Your Love
9. I Don?t Live Today
10. Little Wing
11. Star Spangled Banner
12. Purple Haze

Jimi Hendrix Electric Ladyland 50th

Ladyland

The Jimi Hendrix Experience Electric Ladyland Torrents

The Jimi Hendrix Experience - Electric Ladyland 50th Anniversary Deluxe Edition Get your copy: This incredible box set fr. Jimi Hendrix - Electric Ladyland Sessions., Jimi Hendrix. 1 comment: Olivier Delahaye May 4. TORRENT BOOTLEG SITES. Rock music such as Jimi Hendrix-style electric guitar excites us because it recreates the sound of primal distress calls and 'brings out the animal in us'. Jimi Hendrix Experience - Electric Ladyland Sessions: June-August 1968 (ATM 224-225 2CDR) ATM is a fan label that compiles and archives Hendrix's music. This is the first of more sets to come collecting all the sessions for Hendrix's 1968 album, Electric Ladyland. CD1 sessions on June 10 1968. Jimi Hendrix Experience Electric Ladyland Vinylrip by Jimi Hendrix. Publication date 1968. TORRENT download. Download 85 Files download 7 Original.

Jimi Hendrix Electric Ladyland Tracklist

The Jimi Hendrix Experience
Electric Ladyland (1968)
FLAC LOSSLESS 24bit-96kHz
PBTHAL Vinyl Rip
allmusic.com...
Jimi Hendrix's third and final album with the original Experience found him taking his funk and psychedelic sounds to the absolute limit. The result was not only one of the best rock albums of the era, but also Hendrix's original musical vision at its absolute apex. When revisionist rock critics refer to him as the maker of a generation's mightiest dope music, this is the album they're referring to. But Electric Ladyland is so much more than just background music for chemical intake. Kudos to engineer Eddie Kramer (who supervised the remastering of the original two-track stereo masters for this 1997 reissue on MCA) for taking Hendrix's visions of a soundscape behind his music and giving it all context, experimenting with odd mic techniques, echo, backward tape, flanging, and chorusing, all new techniques at the time, at least the way they're used here. What Hendrix sonically achieved on this record expanded the concept of what could be gotten out of a modern recording studio in much the same manner as Phil Spector had done a decade before with his Wall of Sound. As an album this influential (and as far as influencing a generation of players and beyond, this was his ultimate statement for many), the highlights speak for themselves: 'Crosstown Traffic,' his reinterpretation of Bob Dylan's 'All Along the Watchtower,' 'Burning of the Midnight Lamp,' the spacy '1983...(A Merman I Should Turn to Be),' and 'Voodoo Child (Slight Return),' a landmark in Hendrix's playing. With this double set (now on one compact disc), Hendrix once again pushed the concept album to new horizons.
foobar2000 1.4.3 / Dynamic Range Meter 1.1.1
log date: 2020-11-12 08:36:28
--------------------------------------------------------------------------------
Analyzed: The Jimi Hendrix Experience / Electric Ladyland
--------------------------------------------------------------------------------
DR Peak RMS Duration Track
--------------------------------------------------------------------------------
DR11 -5.20 dB -20.81 dB 1:24 01-... And The Gods Made Love
DR10 -3.53 dB -15.06 dB 2:10 02-Have You Ever Been (To Electric Ladyland)
DR10 -3.21 dB -15.65 dB 2:27 03-Crosstown Traffic
DR11 -0.70 dB -15.10 dB 15:03 04-Voodoo Chile
DR11 -1.87 dB -16.30 dB 2:53 05-Little Miss Strange
DR11 -6.06 dB -18.69 dB 3:30 06-Long Hot Summer Night
DR11 -2.53 dB -16.72 dB 4:11 07-Come On (Let The Good Times Roll)
DR11 -4.73 dB -18.13 dB 3:46 08-Gypsy Eyes
DR10 -5.83 dB -17.61 dB 3:44 09-Burning Of The Midnight Lamp
DR12 -2.97 dB -17.59 dB 3:43 10-Rainy Day, Dream Away
DR13 -0.70 dB -18.08 dB 13:47 11-1983 ... (A Merman I Should Turn To Be)
DR12 -3.57 dB -25.70 dB 1:04 12-Moon, Turn The Tides ... Gently Gently Away
DR13 -1.13 dB -16.61 dB 4:27 13-Still Raining, Still Dreaming
DR12 -0.86 dB -16.08 dB 4:34 14-House Burning Down
DR10 -3.12 dB -16.46 dB 4:01 15-All Along The Watchtower
DR10 -1.26 dB -14.41 dB 5:14 16-Voodoo Child (Slight Return)
Number of tracks: 16
Official DR value: DR11
Samplerate: 96000 Hz
Channels: 2
Bits per sample: 24
Bitrate: 2894 kbps
Codec: FLAC
Support the artists...
buy it if you like it!
Thanks for Seeding!
Cheers! ;)